[ オンエアリストに戻る ]
TITLE "Heavy Metal Syndicate #1120"
FILE "2012-07-29.mp3" WAVE
  TRACK 01 AUDIO
    TITLE "EVERY ROAD LEADS HOME TO YOU"
    PERFORMER "RICHIE SAMBORA : Aftermath of the Lowdown"
    INDEX 01 00:00:00

  TRACK 02 AUDIO
    TITLE "RISE UP"
    PERFORMER "TESTAMENT : Dark Roots of Earth"
    INDEX 01 18:03:07

  TRACK 03 AUDIO
    TITLE "IMMORTAL"
    PERFORMER "WILDESTARR : A Tell Tale Heart"
    INDEX 01 23:30:63

  TRACK 04 AUDIO
    TITLE "FIRST OF MAY (Live 2011)"
    PERFORMER "BLACKMORE'S NIGHT : A Knight in York"
    INDEX 01 28:59:43

  TRACK 05 AUDIO
    TITLE "FANFARE FOR THE COMMON MAN (PT.2)"
    PERFORMER "KEITH EMERSON BAND - MÜNCHNER RUNDFUNKORCHESTER : Three Fates Project"
    INDEX 01 34:46:21

  TRACK 06 AUDIO
    TITLE "Introduction: DANCING IN THE STREET"
    PERFORMER "MARTHA and the VANDELLAS : Dance Party"
    INDEX 01 46:31:44

  TRACK 07 AUDIO
    TITLE "Classic rock: DANCING IN THE STREET"
    PERFORMER "VAN HALEN : Diver Down (Digitally remastered)"
    INDEX 01 50:09:47


SEO [PR] おまとめローン 冷え性対策 坂本龍馬 動画掲示板 レンタルサーバー SEO