[ オンエアリストに戻る ]
TITLE "Heavy Metal Syndicate #1119"
FILE "2012-07-22.mp3" WAVE
  TRACK 01 AUDIO
    TITLE "ALL FALLS DOWN"
    PERFORMER "FLYING COLORS : Flying Colors"
    INDEX 01 00:00:00

  TRACK 02 AUDIO
    TITLE "TOAST TO TOMORROW (Live 2011)"
    PERFORMER "BLACKMORE'S NIGHT : A Knight in York"
    INDEX 01 17:16:36

  TRACK 03 AUDIO
    TITLE "FEEL THE FIRE"
    PERFORMER "DRIVER : Countdown"
    INDEX 01 22:25:70

  TRACK 04 AUDIO
    TITLE "BEGGING FOR UR LIFE"
    PERFORMER "MILLION DOLLAR RELOAD : A Sinner's Saint"
    INDEX 01 26:32:05

  TRACK 05 AUDIO
    TITLE "RACING THE WORLD"
    PERFORMER "STEVE VAI : The Story of Light"
    INDEX 01 31:00:27

  TRACK 06 AUDIO
    TITLE "Introduction: UP AROUND THE BEND"
    PERFORMER "CREEDENCE CLEARWATER REVIVAL : Cosmo's Factory"
    INDEX 01 43:19:26

  TRACK 07 AUDIO
    TITLE "Classic rock: UP AROUND THE BEND"
    PERFORMER "HANOI ROCKS : Two Steps from the Move (Digitally remastered)"
    INDEX 01 46:30:41

Background music: "
    TITLE "MILES AWAY"
    PERFORMER "JON LORD : Beyond the Notes"
    INDEX 01 50:11:68


SEO [PR] おまとめローン 冷え性対策 坂本龍馬 動画掲示板 レンタルサーバー SEO