[ オンエアリストに戻る ]
TITLE "Heavy Metal Syndicate #1118"
FILE "2012-07-15.mp3" WAVE
  TRACK 01 AUDIO
    TITLE "SEX"
    PERFORMER "MOTLEY CRUE : Sex (download single)"
    INDEX 01 00:00:00

  TRACK 02 AUDIO
    TITLE "FIGHT THE SYSTEM!"
    PERFORMER "MILLION DOLLAR RELOAD : A Sinner's Saint"
    INDEX 01 18:04:20

  TRACK 03 AUDIO
    TITLE "HOLLYWOOD SHOOTING STAR"
    PERFORMER "DRIVER : Countdown"
    INDEX 01 23:31:34

  TRACK 04 AUDIO
    TITLE "THE LIGHTHOUSE"
    PERFORMER "VISION DIVINE : Destination Set to Nowhere"
    INDEX 01 28:00:37

  TRACK 05 AUDIO
    TITLE "NOTHING IS NOTHING"
    PERFORMER "CHRISTOPHER AMOTT : Impulses"
    INDEX 01 34:31:00

  TRACK 06 AUDIO
    TITLE "Introduction: JOSHUA FIT THE BATTLE OF JERICHO"
    PERFORMER "GRANT GREEN : Feelin' the Spirit"
    INDEX 01 43:22:56

  TRACK 07 AUDIO
    TITLE "Classic rock: PRINCESS OF THE DAWN"
    PERFORMER "ACCEPT : Restless and Wild (Digitally remastered)"
    INDEX 01 47:53:08


SEO [PR] おまとめローン 冷え性対策 坂本龍馬 動画掲示板 レンタルサーバー SEO