[ オンエアリストに戻る ]
TITLE "Heavy Metal Syndicate #1117"
FILE "2012-07-08.mp3" WAVE
  TRACK 01 AUDIO
    TITLE "THE SILENCER"
    PERFORMER "U.D.O. : Celebrator - rare tracks"
    INDEX 01 00:00:00

  TRACK 02 AUDIO
    TITLE "ALL THE FUN OF THE FAYRE (Live 2011)"
    PERFORMER "BLACKMORE'S NIGHT : A Knight in York"
    INDEX 01 14:23:71

  TRACK 03 AUDIO
    TITLE "NOVA ERA"
    PERFORMER "PHOENIX RISING : MMXII"
    INDEX 01 20:39:63

  TRACK 04 AUDIO
    TITLE "BOOK OF THE SEVEN SEALS"
    PERFORMER "STEVE VAI : The Story of Light"
    INDEX 01 32:10:67

  TRACK 05 AUDIO
    TITLE "BIGGER GOD"
    PERFORMER "HELLYEAH : Band of Brothers"
    INDEX 01 37:13:46

  TRACK 06 AUDIO
    TITLE "Introduction: LOVE ME TWO TIMES"
    PERFORMER "DOORS : Strange Days (Digitally remastered)"
    INDEX 01 48:12:25

  TRACK 07 AUDIO
    TITLE "Classic rock: LOVE ME TWO TIMES"
    PERFORMER "AEROSMITH : Air America (Soundtrack)"
    INDEX 01 52:33:19


SEO [PR] おまとめローン 冷え性対策 坂本龍馬 動画掲示板 レンタルサーバー SEO