[ オンエアリストに戻る ]
TITLE "Heavy Metal Syndicate #1116"
FILE "2012-07-01.mp3" WAVE
  TRACK 01 AUDIO
    TITLE "ALL FALLS DOWN"
    PERFORMER "FLYING COLORS : Flying Colors"
    INDEX 01 00:00:00

  TRACK 02 AUDIO
    TITLE "BLACK DIAMOND (Live 2011)"
    PERFORMER "STRATOVARIUS : Under Flaming Winter Skies - Live in Tampere"
    INDEX 01 18:43:68

  TRACK 03 AUDIO
    TITLE "ABADDON"
    PERFORMER "PHOENIX RISING : MMXII"
    INDEX 01 24:58:68

  TRACK 04 AUDIO
    TITLE "SHUTOUT"
    PERFORMER "CHRISTOPHER AMOTT : Impulses"
    INDEX 01 31:28:68

  TRACK 05 AUDIO
    TITLE "TOTAL STRANGERS"
    PERFORMER "VINTAGE TROUBLE : The Bomb Shelter Sessions"
    INDEX 01 35:10:63

  TRACK 06 AUDIO
    TITLE "Introduction: LONG COOL WOMAN IN A BLACK DRESS"
    PERFORMER "HOLLIES : Distant Light"
    INDEX 01 46:26:43

  TRACK 07 AUDIO
    TITLE "Classic rock: LONG COOL WOMAN"
    PERFORMER "VINCE NEIL : Tattoos & Tequila"
    INDEX 01 50:58:48


SEO [PR] おまとめローン 冷え性対策 坂本龍馬 動画掲示板 レンタルサーバー SEO