[ オンエアリストに戻る ]
TITLE "Heavy Metal Syndicate #1115"
FILE "2012-06-24.mp3" WAVE
  TRACK 01 AUDIO
    TITLE "WM FREE"
    PERFORMER "HELLYEAH : Band of Brothers"
    INDEX 01 00:00:00

  TRACK 02 AUDIO
    TITLE "VICTORIOUS"
    PERFORMER "J.R. BLACKMORE & Friends Part 1 : Voices"
    INDEX 01 16:29:06

  TRACK 03 AUDIO
    TITLE "SPEED OF LIGHT (Live 2011)"
    PERFORMER "STRATOVARIUS : Under Flaming Winter Skies - Live in Tampere"
    INDEX 01 23:11:46

  TRACK 04 AUDIO
    TITLE "SEA IS BLACK"
    PERFORMER "CHRISTOPHER AMOTT : Impulses"
    INDEX 01 27:06:16

  TRACK 05 AUDIO
    TITLE "FIGURE IT OUT"
    PERFORMER "SERJ TANKIAN : Harakiri"
    INDEX 01 32:23:26

  TRACK 06 AUDIO
    TITLE "FLAG"
    PERFORMER "IT BITES : Map of the Past"
    INDEX 01 35:58:20

  TRACK 07 AUDIO
    TITLE "Classic rock: FOX ON THE RUN (7" version)"
    PERFORMER "SWEET : Desolation Boulevard (Digitally remastered)"
    INDEX 01 50:53:11


SEO [PR] おまとめローン 冷え性対策 坂本龍馬 動画掲示板 レンタルサーバー SEO