[ オンエアリストに戻る ]
TITLE "Heavy Metal Syndicate #1114"
FILE "2012-06-17.mp3" WAVE
  TRACK 01 AUDIO
    TITLE "THE CHOSEN ONE"
    PERFORMER "PHOENIX RISING : MMXII"
    INDEX 01 00:00:00

  TRACK 02 AUDIO
    TITLE "PARADISE CITY"
    PERFORMER "TOM CRUISE : Rock of Ages (Original Motion Picture Soundtrack)"
    INDEX 01 17:33:34

  TRACK 03 AUDIO
    TITLE "ASCENDING TO INFINITY"
    PERFORMER "LUCA TURILLI'S RHAPSODY : Ascending to Infinity"
    INDEX 01 23:03:22

  TRACK 04 AUDIO
    TITLE "BLACK SEPTEMBER"
    PERFORMER "MURDER OF MY SWEET : Bye Bye Lullaby"
    INDEX 01 29:27:15

  TRACK 05 AUDIO
    TITLE "BLUES HAND ME DOWN"
    PERFORMER "VINTAGE TROUBLE : The Bomb Shelter Sessions"
    INDEX 01 35:17:54

  TRACK 06 AUDIO
    TITLE "L'ENFANT SAUVAGE"
    PERFORMER "GOJIRA : L'Enfant Sauvage"
    INDEX 01 39:02:43

  TRACK 07 AUDIO
    TITLE "Classic rock: DRIVE-IN SATURDAY"
    PERFORMER "DAVID BOWIE : Aladdin Sane (Digitally remastered)"
    INDEX 01 51:20:32


SEO [PR] おまとめローン 冷え性対策 坂本龍馬 動画掲示板 レンタルサーバー SEO