[ オンエアリストに戻る ]
TITLE "Heavy Metal Syndicate #1113"
FILE "2012-06-10.mp3" WAVE
  TRACK 01 AUDIO
    TITLE "TENEBRIS REVELANTUR / AGORAPHOBIA"
    PERFORMER "PHOENIX RISING : MMXII"
    INDEX 01 00:00:00

  TRACK 02 AUDIO
    TITLE "WAR IN ME"
    PERFORMER "HELLYEAH : Band of Brothers"
    INDEX 01 17:05:11

  TRACK 03 AUDIO
    TITLE "GRAY STONE GATEWAY"
    PERFORMER "KIKO LOUREIRO : Sounds of Innocence"
    INDEX 01 22:51:31

  TRACK 04 AUDIO
    TITLE "JUDAS"
    PERFORMER "ASIA : XXX"
    INDEX 01 28:26:00

  TRACK 05 AUDIO
    TITLE "Introduction: YOU KEEP ME HANGIN' ON"
    PERFORMER "SUPREMES : The Supremes Sing Holland-Dozier-Holland"
    INDEX 01 40:11:54

  TRACK 06 AUDIO
    TITLE "Classic rock: YOU KEEP ME HANGIN' ON"
    PERFORMER "VANILLA FUDGE : Vanilla Fudge"
    INDEX 01 45:58:61


SEO [PR] おまとめローン 冷え性対策 坂本龍馬 動画掲示板 レンタルサーバー SEO