[ オンエアリストに戻る ]
TITLE "Heavy Metal Syndicate #1112"
FILE "2012-06-03.mp3" WAVE
  TRACK 01 AUDIO
    TITLE "LEGENDARY CHILD"
    PERFORMER "AEROSMITH : Music from Another Dimension!"
    INDEX 01 00:00:00

  TRACK 02 AUDIO
    TITLE "THE STAR-SPANGLED BANNER (Live at Fenway Park, May 26, 2012)"
    PERFORMER "GARY CHERONE and NUNO BETTENCOURT"
    INDEX 01 15:33:45

  TRACK 03 AUDIO
    TITLE "FOREVER ONE"
    PERFORMER "KOBRA AND THE LOTUS : Kobra and the Lotus"
    INDEX 01 19:13:01

  TRACK 04 AUDIO
    TITLE "INTRO (WINGS OF WAX) / TIGER PUNCH (Live 2011)"
    PERFORMER "HIBRIA : Blinded by Tokyo - Live in Japan"
    INDEX 01 25:08:38

  TRACK 05 AUDIO
    TITLE "FACE ON THE BRIDGE"
    PERFORMER "ASIA : XXX"
    INDEX 01 33:08:11

  TRACK 06 AUDIO
    TITLE "Introduction: LAY ALL YOUR LOVE ON ME"
    PERFORMER "ABBA : Super Trouper"
    INDEX 01 45:26:24

  TRACK 07 AUDIO
    TITLE "Classic rock: LAY ALL YOUR LOVE ON ME"
    PERFORMER "HELLOWEEN : Metal Jukebox"
    INDEX 01 48:47:74


SEO [PR] おまとめローン 冷え性対策 坂本龍馬 動画掲示板 レンタルサーバー SEO