[ オンエアリストに戻る ]
TITLE "Heavy Metal Syndicate #1111"
FILE "2012-05-27.mp3" WAVE
  TRACK 01 AUDIO
    TITLE "Classic rock: PARANOID"
    PERFORMER "BLACK SABBATH : Paranoid (Digitally remastered)"
    INDEX 01 00:00:00

  TRACK 02 AUDIO
    TITLE "WE FIGHT"
    PERFORMER "ARTHEMIS : We Fight"
    INDEX 01 16:43:16

  TRACK 03 AUDIO
    TITLE "DANCING IN THE TEMPLE (OF THE MAD QUEEN BEE)"
    PERFORMER "CANDLEMASS : Psalms for the Dead"
    INDEX 01 23:13:73

  TRACK 04 AUDIO
    TITLE "THE PARANOID"
    PERFORMER "IHSAHN : Eremita"
    INDEX 01 28:06:71

  TRACK 05 AUDIO
    TITLE "THE GALAXY EXPRESS 999"
    PERFORMER "ANIMETAL USA : Animetal USA W"
    INDEX 01 35:41:07

  TRACK 06 AUDIO
    TITLE "Introduction: CALIFORNIA GIRLS"
    PERFORMER "BEACH BOYS : Summer Days (And Summer Nights!!)"
    INDEX 01 43:33:60

  TRACK 07 AUDIO
    TITLE "Classic rock: CALIFORNIA GIRLS"
    PERFORMER "DAVID LEE ROTH : Crazy from the Heat (EP)"
    INDEX 01 47:57:65


SEO [PR] おまとめローン 冷え性対策 坂本龍馬 動画掲示板 レンタルサーバー SEO