[ オンエアリストに戻る ]
TITLE "Heavy Metal Syndicate #1110"
FILE "2012-05-20.mp3" WAVE
  TRACK 01 AUDIO
    TITLE "APOCALYPTIC NIGHTMARE (instrumental) / EMPIRE"
    PERFORMER "ARTHEMIS : We Fight"
    INDEX 01 00:00:00

  TRACK 02 AUDIO
    TITLE "ONLY THE BROKEN HEARTS (MAKE YOU BEAUTIFUL)"
    PERFORMER "SONATA ARCTICA : Stones Grow Her Name"
    INDEX 01 19:31:44

  TRACK 03 AUDIO
    TITLE "SOMEWHERE IN TIME"
    PERFORMER "REINXEED : Welcome to the Theater"
    INDEX 01 24:44:50

  TRACK 04 AUDIO
    TITLE "PSYCHOTIC EUPHORIC"
    PERFORMER "SILENT DESCENT : Mind Games"
    INDEX 01 30:39:68

  TRACK 05 AUDIO
    TITLE "WE'RE NOT GONNA TAKE IT (Mariachi version)"
    PERFORMER "Hornitos Mariachi Mash Up (feat. Twisted Sister)"
    INDEX 01 36:59:56

  TRACK 06 AUDIO
    TITLE "Classic rock: LOOKING FOR LOVE"
    PERFORMER "MICHAEL SCHENKER GROUP : MSG (Digitally remastered)"
    INDEX 01 52:19:48


SEO [PR] おまとめローン 冷え性対策 坂本龍馬 動画掲示板 レンタルサーバー SEO