[ オンエアリストに戻る ]
TITLE "Heavy Metal Syndicate #1109"
FILE "2012-05-13.mp3" WAVE
  TRACK 01 AUDIO
    TITLE "HALO"
    PERFORMER "SLASH featuring MYLES KENNEDY and the CONSPIRATORS : Apocalyptic Love"
    INDEX 01 00:00:00

  TRACK 02 AUDIO
    TITLE "FEW AGAINST MANY"
    PERFORMER "FIREWIND : Few Against Many"
    INDEX 01 19:34:50

  TRACK 03 AUDIO
    TITLE "WALL STREET"
    PERFORMER "WIG WAM : Wall Street"
    INDEX 01 25:46:15

  TRACK 04 AUDIO
    TITLE "CUM ON FEEL THE NOIZE (Live 1983)"
    PERFORMER "QUIET RIOT : Live At The US Festival, 1983"
    INDEX 01 31:25:51

  TRACK 05 AUDIO
    TITLE "CASH KING"
    PERFORMER "ENGEL : Blood of Saints"
    INDEX 01 37:46:45

  TRACK 06 AUDIO
    TITLE "Classic rock: SISTER JANE"
    PERFORMER "TAI PHONG : Tai Phong (Digitally remastered)"
    INDEX 01 52:03:34


SEO [PR] おまとめローン 冷え性対策 坂本龍馬 動画掲示板 レンタルサーバー SEO