[ オンエアリストに戻る ]
TITLE "Heavy Metal Syndicate #1108"
FILE "2012-05-06.mp3" WAVE
  TRACK 01 AUDIO
    TITLE "LOOK OUT"
    PERFORMER "3 INCHES OF BLOOD : Long Live Heavy Metal"
    INDEX 01 00:00:00

  TRACK 02 AUDIO
    TITLE "ONE LAST THRILL"
    PERFORMER "SLASH featuring MYLES KENNEDY and the CONSPIRATORS : Apocalyptic Love"
    INDEX 01 12:34:61

  TRACK 03 AUDIO
    TITLE "Reissue: PISS"
    PERFORMER "PANTERA : Vulgar Display of Power (20th anniversary edition)"
    INDEX 01 18:13:40

  TRACK 04 AUDIO
    TITLE "CINDERBLOX"
    PERFORMER "SONATA ARCTICA : Stones Grow Her Name"
    INDEX 01 22:52:24

  TRACK 05 AUDIO
    TITLE "SURPRISE ME"
    PERFORMER "TIM CHRISTENSEN and the DAMN CRYSTALS : Tim Christensen and the Damn Crystals"
    INDEX 01 29:54:56

  TRACK 06 AUDIO
    TITLE "OLD SCHOOL SONG"
    PERFORMER "IAN ANDERSON : Thick as a Brick 2"
    INDEX 01 36:30:17

  TRACK 07 AUDIO
    TITLE "Classic rock: JEREMY BENDER / THE SHERIFF (Live 1973)"
    PERFORMER "EMERSON, LAKE & PALMER"
    Welcome Back, My Friends, to the Show That Never Ends - Ladies and Gentlemen (Digitally remastered)
    INDEX 01 51:53:54


SEO [PR] おまとめローン 冷え性対策 坂本龍馬 動画掲示板 レンタルサーバー SEO