[ オンエアリストに戻る ]
TITLE "Heavy Metal Syndicate #1107"
FILE "2012-04-29.mp3" WAVE
  TRACK 01 AUDIO
    TITLE "LOSING MY INSANITY"
    PERFORMER "SONATA ARCTICA : Stones Grow Her Name"
    INDEX 01 00:00:00

  TRACK 02 AUDIO
    TITLE "WALL OF SOUND"
    PERFORMER "FIREWIND : Few Against Many"
    INDEX 01 19:06:56

  TRACK 03 AUDIO
    TITLE "BACK IN THE GAME"
    PERFORMER "JACK BLADES : Rock 'n Roll Ride"
    INDEX 01 25:06:02

  TRACK 04 AUDIO
    TITLE "HEADLONG FLIGHT (radio edit)"
    PERFORMER "RUSH : Clockwork Angels"
    INDEX 01 29:55:53

  TRACK 05 AUDIO
    TITLE "FRONTLINE"
    PERFORMER "ENGEL : Blood of Saints"
    INDEX 01 36:44:60

  TRACK 06 AUDIO
    TITLE "4000 TORCHES"
    PERFORMER "3 INCHES OF BLOOD : Long Live Heavy Metal"
    INDEX 01 40:09:14

  TRACK 07 AUDIO
    TITLE "Classic rock: MOTORCYCLE MAN"
    PERFORMER "SAXON : The Carrere Years 1979-1984 / Wheels of Steel (Digitally remastered)"
    INDEX 01 50:57:52


SEO [PR] おまとめローン 冷え性対策 坂本龍馬 動画掲示板 レンタルサーバー SEO