[ オンエアリストに戻る ]
TITLE "Heavy Metal Syndicate #1106"
FILE "2012-04-22.mp3" WAVE
  TRACK 01 AUDIO
    TITLE "NEVER GIVE UP"
    PERFORMER "SUNSTORM : Emotional Fire"
    INDEX 01 00:00:00

  TRACK 02 AUDIO
    TITLE "LEATHER LORD"
    PERFORMER "3 INCHES OF BLOOD : Long Live Heavy Metal"
    INDEX 01 16:20:01

  TRACK 03 AUDIO
    TITLE "UH HUH"
    PERFORMER "IMPERIAL STATE ELECTRIC : Pop War"
    INDEX 01 22:16:52

  TRACK 04 AUDIO
    TITLE "JESSIE'S GIRL"
    PERFORMER "CHILDREN OF BODOM : Holiday at Lake Bodom - 15 Years of Wasted Youth"
    INDEX 01 25:45:10

  TRACK 05 AUDIO
    TITLE "(I'VE GOT) SOMETHING FOR YOU"
    PERFORMER "GREAT WHITE : Elation"
    INDEX 01 31:14:49

  TRACK 06 AUDIO
    TITLE "YOU'RE SO VAIN"
    PERFORMER "MARILYN MANSON : Born Villain (feat. Johnny Depp)"
    INDEX 01 35:29:70

  TRACK 07 AUDIO
    TITLE "Classic rock: ALL THE YOUNG DUDES"
    PERFORMER "MOTT THE HOOPLE : All the Young Dudes (Digitally remastered)"
    INDEX 01 52:31:02


SEO [PR] おまとめローン 冷え性対策 坂本龍馬 動画掲示板 レンタルサーバー SEO