[ オンエアリストに戻る ]
TITLE "Heavy Metal Syndicate #1105"
FILE "2012-04-15.mp3" WAVE
  TRACK 01 AUDIO
    TITLE "METAL WOMAN"
    PERFORMER "3 INCHES OF BLOOD : Long Live Heavy Metal"
    INDEX 01 00:00:00

  TRACK 02 AUDIO
    TITLE "FLASH TO BANG TIME"
    PERFORMER "ACCEPT : Stalingrad"
    INDEX 01 16:51:16

  TRACK 03 AUDIO
    TITLE "HEARTBREAKER"
    PERFORMER "H.E.A.T : Address the Nation"
    INDEX 01 22:39:09

  TRACK 04 AUDIO
    TITLE "CAN'T SEEM TO SHAKE IT OFF MY MIND"
    PERFORMER "IMPERIAL STATE ELECTRIC : Pop War"
    INDEX 01 27:24:57

  TRACK 05 AUDIO
    TITLE "FORTUNA / BACK TO BACK (Live 2011)"
    PERFORMER "PRETTY MAIDS : It Comes Alive - Maid in Switzerland -"
    INDEX 01 31:16:10

  TRACK 06 AUDIO
    TITLE "Introduction: WE GOTTA GET OUT OF THIS PLACE"
    PERFORMER "ANIMALS : Animal Tracks (US edition)"
    INDEX 01 45:26:32

  TRACK 07 AUDIO
    TITLE "WE GOTTA GET OUT OF THIS PLACE"
    PERFORMER "ALICE COOPER : Welcome 2 My Nightmare (UK edition)"
    INDEX 01 52:10:31


SEO [PR] おまとめローン 冷え性対策 坂本龍馬 動画掲示板 レンタルサーバー SEO