[ オンエアリストに戻る ]
TITLE "Heavy Metal Syndicate #1104"
FILE "2012-04-08.mp3" WAVE
  TRACK 01 AUDIO
    TITLE "HUNG, DRAWN AND QUARTERED"
    PERFORMER "ACCEPT : Stalingrad"
    INDEX 01 00:00:00

  TRACK 02 AUDIO
    TITLE "RICHES TO RAGS"
    PERFORMER "EUROPE : Bag of Bones"
    INDEX 01 13:25:33

  TRACK 03 AUDIO
    TITLE "IRON MAN"
    PERFORMER "WILLIAM SHATNER : Seeking Major Tom (feat. Zakk Wylde & Mike Inez)"
    INDEX 01 21:51:09

  TRACK 04 AUDIO
    TITLE "HEAVEN IS CALLING"
    PERFORMER "AT VANCE : Facing Your Enemy"
    INDEX 01 29:03:47

  TRACK 05 AUDIO
    TITLE "UNDAUNTED"
    PERFORMER "ADRENALINE MOB : Omerta'"
    INDEX 01 34:43:07

  TRACK 06 AUDIO
    TITLE "Classic rock: LOOKING FOR LOVE"
    PERFORMER "RATT : Dancing Undercover (Digitally remastered)"
    INDEX 01 52:21:51


SEO [PR] おまとめローン 冷え性対策 坂本龍馬 動画掲示板 レンタルサーバー SEO