[ オンエアリストに戻る ]
TITLE "Heavy Metal Syndicate #1103"
FILE "2012-04-01.mp3" WAVE
  TRACK 01 AUDIO
    TITLE "CRY THUNDER"
    PERFORMER "DRAGONFORCE : The Power Within"
    INDEX 01 00:00:00

  TRACK 02 AUDIO
    TITLE "FEELIN' ME"
    PERFORMER "ADRENALINE MOB : Omerta'"
    INDEX 01 13:55:38

  TRACK 03 AUDIO
    TITLE "CANTATA NO. 140 (Wachet Auf)"
    PERFORMER "STEVE HOWE : Time"
    INDEX 01 21:35:27

  TRACK 04 AUDIO
    TITLE "SATCH BOOGIE (Live 2010)"
    PERFORMER "JOE SATRIANI : Satchurated - Live in Montreal"
    INDEX 01 24:21:07

  TRACK 05 AUDIO
    TITLE "FALLING DOWN"
    PERFORMER "H.E.A.T : Address the Nation"
    INDEX 01 29:25:33

  TRACK 06 AUDIO
    TITLE "PALE HORSE"
    PERFORMER "NAGLFAR : Teras"
    INDEX 01 33:49:34

  TRACK 07 AUDIO
    TITLE "THE BARD'S SONG (THE HOBBIT)"
    PERFORMER "BLIND GUARDIAN : Memories of a Time to Come"
    INDEX 01 50:11:59


SEO [PR] おまとめローン 冷え性対策 坂本龍馬 動画掲示板 レンタルサーバー SEO