[ オンエアリストに戻る ]
TITLE "Heavy Metal Syndicate #1102"
FILE "2012-03-25.mp3" WAVE
  TRACK 01 AUDIO
    TITLE "VALHALLA"
    PERFORMER "BLIND GUARDIAN : Memories of a Time to Come"
    INDEX 01 00:00:00

  TRACK 02 AUDIO
    TITLE "NO REFLECTION"
    PERFORMER "MARILYN MANSON : Born Villain"
    INDEX 01 17:33:33

  TRACK 03 AUDIO
    TITLE "JAILBREAK (Live 2011)"
    PERFORMER "THIN LIZZY : High Voltage Festival - Recorded Live - July 23rd 2011"
    INDEX 01 24:20:20

  TRACK 04 AUDIO
    TITLE "DANCING IN THE MOONLIGHT (Live 2011)"
    PERFORMER "THIN LIZZY : High Voltage Festival - Recorded Live - July 23rd 2011 (feat. Michael Monroe)"
    INDEX 01 29:05:19

  TRACK 05 AUDIO
    TITLE "A LEGAL KILLING"
    PERFORMER "YOUTHQUAKE : Darkness and Light, Strife and Conflict"
    INDEX 01 35:42:12

  TRACK 06 AUDIO
    TITLE "Classic rock: STREET LETHAL"
    PERFORMER "RACER X : Street Lethal (Digitally remastered)"
    INDEX 01 50:17:01


SEO [PR] おまとめローン 冷え性対策 坂本龍馬 動画掲示板 レンタルサーバー SEO