[ オンエアリストに戻る ]
TITLE "Heavy Metal Syndicate #1101"
FILE "2012-03-18.mp3" WAVE
  TRACK 01 AUDIO
    TITLE "BEAUTIFUL DISASTER"
    PERFORMER "EUROPE : Bag of Bones"
    INDEX 01 00:00:00

  TRACK 02 AUDIO
    TITLE "BLOOD BROTHERS (Live 2011)"
    PERFORMER "IRON MAIDEN : En Vivo!"
    INDEX 01 13:43:12

  TRACK 03 AUDIO
    TITLE "Reissue: WE ROCK (Live 1984)"
    PERFORMER "DIO : The Last in Line (Deluxe expanded edition)"
    INDEX 01 20:15:07

  TRACK 04 AUDIO
    TITLE "MY SANCTUARY"
    PERFORMER "UNISONIC : Unisonic"
    INDEX 01 25:05:54

  TRACK 05 AUDIO
    TITLE "DAUGHTERS OF DARKNESS"
    PERFORMER "HALESTORM : The Strange Case of..."
    INDEX 01 31:28:43

  TRACK 06 AUDIO
    TITLE "Classic rock: A FRIEND OF MINE"
    PERFORMER "FIELDS : Fields"
    INDEX 01 51:00:22


SEO [PR] おまとめローン 冷え性対策 坂本龍馬 動画掲示板 レンタルサーバー SEO