[ オンエアリストに戻る ]
TITLE "Heavy Metal Syndicate #1100 - ゲスト : 木曽さんちゅうさん"
FILE "2012-03-11.mp3" WAVE
  TRACK 01 AUDIO
    TITLE "Reissue: STAND UP AND SHOUT (Live 1983)"
    PERFORMER "DIO : Holy Diver (Deluxe expanded edition)"
    INDEX 01 00:00:00

  TRACK 02 AUDIO
    TITLE "COME ALIVE"
    PERFORMER "DYNAZTY : Sultans of Sin"
    INDEX 01 24:32:51

  TRACK 03 AUDIO
    TITLE "THE ARMY INSIDE"
    PERFORMER "LACUNA COIL : Dark Adrenaline"
    INDEX 01 30:13:44

  TRACK 04 AUDIO
    TITLE "FERTILE GREEN"
    PERFORMER "HIGH ON FIRE : De Vermis Mysteriis"
    INDEX 01 34:18:04

  TRACK 05 AUDIO
    TITLE "Request: HIGH LIFE"
    PERFORMER "XYZ : Hungry (Japanese edition)"
    INDEX 01 52:17:06


SEO [PR] おまとめローン 冷え性対策 坂本龍馬 動画掲示板 レンタルサーバー SEO