[ オンエアリストに戻る ]
TITLE "Heavy Metal Syndicate #1099"
FILE "2012-03-04.mp3" WAVE
  TRACK 01 AUDIO
    TITLE "YOU'RE A LIE"
    PERFORMER "SLASH featuring MYLES KENNEDY and the CONSPIRATORS : Apocalyptic Love"
    INDEX 01 00:00:00

  TRACK 02 AUDIO
    TITLE "NEVER CHANGE ME"
    PERFORMER "UNISONIC : Unisonic"
    INDEX 01 13:42:27

  TRACK 03 AUDIO
    TITLE "PAIN INFANTRY"
    PERFORMER "CONSFEARACY : Consfearacy"
    INDEX 01 19:55:15

  TRACK 04 AUDIO
    TITLE "TRIP THE DARKNESS"
    PERFORMER "LACUNA COIL : Dark Adrenaline"
    INDEX 01 25:48:11

  TRACK 05 AUDIO
    TITLE "I WANT YOU (SHE'S SO HEAVY)"
    PERFORMER "HALESTORM : The Strange Case of..."
    INDEX 01 31:59:03

  TRACK 06 AUDIO
    TITLE "Classic rock: ANOTHER SHOW"
    PERFORMER "GENTLE GIANT : Interview (Digitally remastered)"
    INDEX 01 51:42:64


SEO [PR] おまとめローン 冷え性対策 坂本龍馬 動画掲示板 レンタルサーバー SEO