[ オンエアリストに戻る ]
TITLE "Heavy Metal Syndicate #1098"
FILE "2012-02-26.mp3" WAVE
  TRACK 01 AUDIO
    TITLE "NEVER TOO LATE"
    PERFORMER "UNISONIC : Unisonic"
    INDEX 01 00:00:00

  TRACK 02 AUDIO
    TITLE "DEAD SEA SCROLLS"
    PERFORMER "ANGEL WITCH : As Above, So Below"
    INDEX 01 15:23:23

  TRACK 03 AUDIO
    TITLE "NO PLACE LIKE HOME"
    PERFORMER "PRIMAL ROCK REBELLION : Awoken Broken"
    INDEX 01 23:18:25

  TRACK 04 AUDIO
    TITLE "IT'S NOT OVER"
    PERFORMER "LAVETT : Find Your Purpose"
    INDEX 01 26:14:06

  TRACK 05 AUDIO
    TITLE "FOOLS"
    PERFORMER "PASTORE : The End of Our Flames"
    INDEX 01 30:31:07

  TRACK 06 AUDIO
    TITLE "HELP!"
    PERFORMER "HELP! FOR JAPAN : Help! (EP)"
    INDEX 01 35:14:11

  TRACK 07 AUDIO
    TITLE "Classic rock: SUBDIVISIONS"
    PERFORMER "RUSH : Signals (Digitally remastered)"
    INDEX 01 49:56:35


SEO [PR] おまとめローン 冷え性対策 坂本龍馬 動画掲示板 レンタルサーバー SEO