[ オンエアリストに戻る ]
TITLE "Heavy Metal Syndicate #1097"
FILE "2012-02-19.mp3" WAVE
  TRACK 01 AUDIO
    TITLE "FALLEN WORLD"
    PERFORMER "DRAGONFORCE : The Power Within"
    INDEX 01 00:00:00

  TRACK 02 AUDIO
    TITLE "THE END OF OUR FLAMES"
    PERFORMER "PASTORE : The End of Our Flames"
    INDEX 01 14:29:74

  TRACK 03 AUDIO
    TITLE "BREAKING THE LAW (Live 2005)"
    PERFORMER "JUDAS PRIEST : Rising in the East"
    INDEX 01 21:04:34

  TRACK 04 AUDIO
    TITLE "YOU'VE GOT ANOTHER THING COMIN' (Live 2005)"
    PERFORMER "JUDAS PRIEST : Rising in the East"
    INDEX 01 23:29:46

  TRACK 05 AUDIO
    TITLE "HERE'S TO US"
    PERFORMER "HALESTORM : The Strange Case of..."
    INDEX 01 33:40:68

  TRACK 06 AUDIO
    TITLE "COME ON"
    PERFORMER "FAIR WARNING : Best and More"
    INDEX 01 37:51:61

  TRACK 07 AUDIO
    TITLE "Classic rock: STAND UP AND FIGHT"
    PERFORMER "M.A.R.S. (MacAlpine-Aldridge-Rock-Sarzo) : Project: Driver (Digitally remastered)"
    INDEX 01 52:10:17


SEO [PR] おまとめローン 冷え性対策 坂本龍馬 動画掲示板 レンタルサーバー SEO