[ オンエアリストに戻る ]
TITLE "Heavy Metal Syndicate #1096"
FILE "2012-02-12.mp3" WAVE
  TRACK 01 AUDIO
    TITLE "BRUTAL STORM"
    PERFORMER "PASTORE : The End of Our Flames"
    INDEX 01 00:00:00

  TRACK 02 AUDIO
    TITLE "FIGHT NIGHT"
    PERFORMER "UFO : Seven Deadly"
    INDEX 01 16:31:49

  TRACK 03 AUDIO
    TITLE "SLAVE TO THE GRIND"
    PERFORMER "HALESTORM : The Strange Case of..."
    INDEX 01 22:33:06

  TRACK 04 AUDIO
    TITLE "WE CAN'T GO ON"
    PERFORMER "LAVETT : Find Your Purpose"
    INDEX 01 26:56:71

  TRACK 05 AUDIO
    TITLE "THE WOLF I FEED"
    PERFORMER "NAPALM DEATH : Utilitarian"
    INDEX 01 32:35:37

  TRACK 06 AUDIO
    TITLE "Classic rock: DAY AFTER DAY"
    PERFORMER "BADFINGER : Straight Up (Digitally remastered)"
    INDEX 01 48:11:49


SEO [PR] おまとめローン 冷え性対策 坂本龍馬 動画掲示板 レンタルサーバー SEO