[ オンエアリストに戻る ]
TITLE "Heavy Metal Syndicate #1095"
FILE "2012-02-05.mp3" WAVE
  TRACK 01 AUDIO
    TITLE "WONDERLAND"
    PERFORMER "UFO : Seven Deadly"
    INDEX 01 00:00:00

  TRACK 02 AUDIO
    TITLE "LOVE BITES (SO DO I)"
    PERFORMER "HALESTORM : The Strange Case of..."
    INDEX 01 19:21:25

  TRACK 03 AUDIO
    TITLE "OPERATION FREEDOM"
    PERFORMER "ASTRAL DOORS : Jerusalem"
    INDEX 01 24:12:01

  TRACK 04 AUDIO
    TITLE "CARRY ON DOCTOR"
    PERFORMER "SONS OF MERRICK : Tight Nerves & Suavity"
    INDEX 01 27:53:47

  TRACK 05 AUDIO
    TITLE "FLESH TO DUST"
    PERFORMER "TERRORIZER : Hordes of Zombies"
    INDEX 01 32:56:65

  TRACK 06 AUDIO
    TITLE "Classic rock: FLIGHT OF THE WARRIOR"
    PERFORMER "RIOT : Thundersteel (Digitally remastered)"
    INDEX 01 51:19:48


SEO [PR] おまとめローン 冷え性対策 坂本龍馬 動画掲示板 レンタルサーバー SEO