[ オンエアリストに戻る ]
TITLE "Heavy Metal Syndicate #1094"
FILE "2012-01-29.mp3" WAVE
  TRACK 01 AUDIO
    TITLE "ROCK AND ROLL (Live 1993)"
    PERFORMER "FAIR WARNING : Best and More"
    INDEX 01 00:00:00

  TRACK 02 AUDIO
    TITLE "WITH A STRANGER'S EYE"
    PERFORMER "ASTRAL DOORS : Jerusalem"
    INDEX 01 15:18:39

  TRACK 03 AUDIO
    TITLE "I SEE LIGHTS"
    PERFORMER "PRIMAL ROCK REBELLION : Awoken Broken"
    INDEX 01 21:11:22

  TRACK 04 AUDIO
    TITLE "Reissue: TYRANNY"
    PERFORMER "FIREWIND : Forged by Fire (2012 reissue)"
    INDEX 01 26:53:07

  TRACK 05 AUDIO
    TITLE "GUARDIAN ANGEL"
    PERFORMER "J.R. BLACKMORE & Friends Part 1 : Voices"
    INDEX 01 32:39:15

  TRACK 06 AUDIO
    TITLE "Classic rock: 2 MINUTES TO MIDNIGHT (Live 2001)"
    PERFORMER "IRON MAIDEN : Rock in Rio (Digitally remastered)"
    INDEX 01 49:17:64


SEO [PR] おまとめローン 冷え性対策 坂本龍馬 動画掲示板 レンタルサーバー SEO