[ オンエアリストに戻る ]
TITLE "Heavy Metal Syndicate #1093"
FILE "2012-01-22.mp3" WAVE
  TRACK 01 AUDIO
    TITLE "TATTOO"
    PERFORMER "VAN HALEN : A Different Kind of Truth"
    INDEX 01 00:00:00

  TRACK 02 AUDIO
    TITLE "LIFE OF THE PARTY"
    PERFORMER "LANA LANE : El Dorado Hotel"
    INDEX 01 19:09:61

  TRACK 03 AUDIO
    TITLE "THE RAINS BEGIN"
    PERFORMER "BARREN EARTH : The Devil's Resolve"
    INDEX 01 24:46:52

  TRACK 04 AUDIO
    TITLE "SUBTERFUGE / 真冬の大喜利大会 選考会"
    PERFORMER "TERRORIZER : Hordes of Zombies"
    INDEX 01 30:02:71

  TRACK 05 AUDIO
    TITLE "Classic rock: TAKE HER"
    PERFORMER "ROUGH CUTT : Rough Cutt"
    INDEX 01 52:41:24


SEO [PR] おまとめローン 冷え性対策 坂本龍馬 動画掲示板 レンタルサーバー SEO