[ オンエアリストに戻る ]
TITLE "Heavy Metal Syndicate #1092"
FILE "2012-01-15.mp3" WAVE
  TRACK 01 AUDIO
    TITLE "STRIKE"
    PERFORMER "PRIMAL FEAR : Unbreakable"
    INDEX 01 00:00:00

  TRACK 02 AUDIO
    TITLE "MAN ZERO, FREAK ONE"
    PERFORMER "SONS OF MERRICK : Tight Nerves & Suavity"
    INDEX 01 22:03:72

  TRACK 03 AUDIO
    TITLE "HOTELS"
    PERFORMER "LANA LANE : El Dorado Hotel"
    INDEX 01 28:08:24

  TRACK 04 AUDIO
    TITLE "VINTAGE WARLORDS"
    PERFORMER "BARREN EARTH : The Devil's Resolve"
    INDEX 01 34:36:39

  TRACK 05 AUDIO
    TITLE "Classic rock: LOST IN THE RAIN"
    PERFORMER "IMPELLITTERI : Impellitteri (EP) (Digitally remastered)"
    INDEX 01 52:54:52


SEO [PR] おまとめローン 冷え性対策 坂本龍馬 動画掲示板 レンタルサーバー SEO