[ オンエアリストに戻る ]
TITLE "Heavy Metal Syndicate #1091 - 好き勝手にかける"
FILE "2012-01-08.mp3" WAVE
  TRACK 01 AUDIO
    TITLE "Request: KICKSTART MY HEART"
    PERFORMER "MOTLEY CRUE : Dr. Feelgood (Digitally remastered)"
    INDEX 01 00:00:00

  TRACK 02 AUDIO
    TITLE "Request: LIVING LOVING MAID (SHE'S JUST A WOMAN)"
    PERFORMER "LED ZEPPELIN : Led Zeppelin II (Digitally remastered)"
    INDEX 01 12:36:39

  TRACK 03 AUDIO
    TITLE "Request: ALL DAY AND ALL OF THE NIGHT"
    PERFORMER "KINKS : All Day and All of the Night (single) (Digitally remastered)"
    INDEX 01 18:58:15

  TRACK 04 AUDIO
    TITLE "Request: WE GOTTA GET OUT OF THIS PLACE"
    PERFORMER "ANIMALS : Animal Tracks (US edition) (Digitally remastered)"
    INDEX 01 23:21:05

  TRACK 05 AUDIO
    TITLE "Request: WELCOME TO MY NIGHTMARE"
    PERFORMER "RONNIE JAMES DIO / STEVE LUKATHER / BOB KULICK / PHIL SOUSSAN / RANDY CASTILLO / PAUL TAYLOR"
    Humanary Stew - A Tribute to Alice Cooper
    INDEX 01 30:38:19

  TRACK 06 AUDIO
    TITLE "Request: CHILDREN OF THE NIGHT"
    PERFORMER "WHITESNAKE : Whitesnake"
    INDEX 01 37:06:59

  TRACK 07 AUDIO
    TITLE "Classic rock: ROCKA ROLLA"
    PERFORMER "JUDAS PRIEST : Rocka Rolla (Digitally remastered)"
    INDEX 01 52:07:62


SEO [PR] おまとめローン 冷え性対策 坂本龍馬 動画掲示板 レンタルサーバー SEO