[ オンエアリストに戻る ]
TITLE "Heavy Metal Syndicate #1090"
FILE "2012-01-01.mp3" WAVE
  TRACK 01 AUDIO
    TITLE "I WANT OUT (Live 2011)"
    PERFORMER "UNISONIC : Ignition (mini album)"
    INDEX 01 00:00:00

  TRACK 02 AUDIO
    TITLE "GIVE EM HELL"
    PERFORMER "PRIMAL FEAR : Unbreakable"
    INDEX 01 12:46:03

  TRACK 03 AUDIO
    TITLE "EMPTY GLASS"
    PERFORMER "WILLIAM SHATNER : Seeking Major Tom (feat. Michael Schenker)"
    INDEX 01 20:04:32

  TRACK 04 AUDIO
    TITLE "SPACE TRUCKING"
    PERFORMER "WILLIAM SHATNER : Seeking Major Tom (feat. Ian Paice & Johnny Winter)"
    INDEX 01 23:11:05

  TRACK 05 AUDIO
    TITLE "THE HOWLING"
    PERFORMER "SONS OF MERRICK : Tight Nerves & Suavity"
    INDEX 01 29:53:03

  TRACK 06 AUDIO
    TITLE "Introduction: WITH A LITTLE HELP FROM MY FRIENDS"
    PERFORMER "BEATLES : Sgt. Pepper's Lonely Hearts Club Band"
    INDEX 01 39:40:67

  TRACK 07 AUDIO
    TITLE "Jon's comment 3"
    PERFORMER "BON JOVI : This Ain't a Love Song (single)"
    INDEX 01 47:09:48

  TRACK 08 AUDIO
    TITLE "Classic rock: WITH A LITTLE HELP FROM MY FRIENDS (Live 1994)"
    PERFORMER "BON JOVI : This Ain't a Love Song (single)"
    INDEX 01 47:37:67


SEO [PR] おまとめローン 冷え性対策 坂本龍馬 動画掲示板 レンタルサーバー SEO