[ オンエアリストに戻る ]
TITLE "Heavy Metal Syndicate #1089"
FILE "2011-12-25.mp3" WAVE
  TRACK 01 AUDIO
    TITLE "UNISONIC"
    PERFORMER "UNISONIC : Ignition (mini album)"
    INDEX 01 00:00:00

  TRACK 02 AUDIO
    TITLE "BLACKOUT"
    PERFORMER "SCORPIONS : Comeblack"
    INDEX 01 13:43:37

  TRACK 03 AUDIO
    TITLE "Reissue: BURNING EARTH"
    PERFORMER "FIREWIND : Burning Earth (2012 reissue)"
    INDEX 01 20:19:10

  TRACK 04 AUDIO
    TITLE "Introduction: WHAT A WONDERFUL WORLD"
    PERFORMER "LOUIS ARMSTRONG : What a Wonderful World"
    INDEX 01 26:01:45

  TRACK 05 AUDIO
    TITLE "WONDERFUL WORLD"
    PERFORMER "BLACK LABEL SOCIETY : Glorious Christmas Songs That Will Make Your Black Label Heart Feel Good (download single)"
    INDEX 01 31:14:60

  TRACK 06 AUDIO
    TITLE "Classic rock: NO MORE MR. NICE GUY"
    PERFORMER "ALICE COOPER : Billion Dollar Babies (Digitally remastered)"
    INDEX 01 50:51:53


SEO [PR] おまとめローン 冷え性対策 坂本龍馬 動画掲示板 レンタルサーバー SEO