[ オンエアリストに戻る ]
TITLE "Heavy Metal Syndicate #1088"
FILE "2011-12-18.mp3" WAVE
  TRACK 01 AUDIO
    TITLE "HATE TRAIN"
    PERFORMER "METALLICA : Beyond Magnetic (EP)"
    INDEX 01 00:00:00

  TRACK 02 AUDIO
    TITLE ""Rivalry" 2012 NHL Winter Classic TV Spot"
    PERFORMER "ALEX SKOLNICK"
    INDEX 01 13:34:34

  TRACK 03 AUDIO
    TITLE "Reissue: I AM THE ANGER"
    PERFORMER "FIREWIND : Burning Earth (2012 reissue)"
    INDEX 01 20:22:27

  TRACK 04 AUDIO
    TITLE "LOVE ME BAD"
    PERFORMER "JAMES DURBIN : Memories of a Beautiful Disaster"
    INDEX 01 25:55:16

  TRACK 05 AUDIO
    TITLE "BEADS OF EBONY 2011"
    PERFORMER "PRAYING MANTIS : Metalmorphosis - 30th Anniversary Album (Japanese edition)"
    INDEX 01 31:24:50

  TRACK 06 AUDIO
    TITLE "Introduction: MR. BIG"
    PERFORMER "FREE : Fire and Water (Digitally remastered)"
    INDEX 01 44:54:08

  TRACK 07 AUDIO
    TITLE "Classic rock: MR. BIG (Live 1993)"
    PERFORMER "MR. BIG : Japandemonium - Raw Like Sushi III"
    INDEX 01 51:46:54


SEO [PR] おまとめローン 冷え性対策 坂本龍馬 動画掲示板 レンタルサーバー SEO