[ オンエアリストに戻る ]
TITLE "Heavy Metal Syndicate #1087"
FILE "2011-12-11.mp3" WAVE
  TRACK 01 AUDIO
    TITLE "REMEMBER IT'S ME"
    PERFORMER "GOTTHARD : download the new song "Remember It's Me" for free"
    INDEX 01 00:00:00

  TRACK 02 AUDIO
    TITLE "STAND UP"
    PERFORMER "JAMES DURBIN : Memories of a Beautiful Disaster"
    INDEX 01 15:33:23

  TRACK 03 AUDIO
    TITLE "STARLIGHT"
    PERFORMER "IRON SAVIOR : The Landing"
    INDEX 01 20:20:07

  TRACK 04 AUDIO
    TITLE "FIRE AND BRIMSTONE"
    PERFORMER "DRAGONLAND : Under the Grey Banner"
    INDEX 01 27:01:16

  TRACK 05 AUDIO
    TITLE "Introduction: RUBY TUESDAY"
    PERFORMER "ROLLING STONES : Between the Buttons (US edition) (Digitally remastered)"
    INDEX 01 47:23:52

  TRACK 06 AUDIO
    TITLE "RUBY TUESDAY"
    PERFORMER "SCORPIONS : Comeblack"
    INDEX 01 51:40:27


SEO [PR] おまとめローン 冷え性対策 坂本龍馬 動画掲示板 レンタルサーバー SEO