[ オンエアリストに戻る ]
TITLE "Heavy Metal Syndicate #1086"
FILE "2011-12-04.mp3" WAVE
  TRACK 01 AUDIO
    TITLE "OUTCAST"
    PERFORMER "JAMES DURBIN : Memories of a Beautiful Disaster (feat. Mick Mars)"
    INDEX 01 00:00:00

  TRACK 02 AUDIO
    TITLE "NINE LIVES"
    PERFORMER "LAST AUTUMN'S DREAM : Nine Lives"
    INDEX 01 14:50:47

  TRACK 03 AUDIO
    TITLE "THE BLACK MARE"
    PERFORMER "DRAGONLAND : Under the Grey Banner"
    INDEX 01 21:46:05

  TRACK 04 AUDIO
    TITLE "CRY FOR LOVE"
    PERFORMER "TO/DIE/FOR : Samsara"
    INDEX 01 28:52:28

  TRACK 05 AUDIO
    TITLE "Introduction: KENTUCKY WOMAN"
    PERFORMER "NEIL DIAMOND : Kentucky Woman (single)"
    INDEX 01 45:05:00

  TRACK 06 AUDIO
    TITLE "Classic rock: KENTUCKY WOMAN"
    PERFORMER "DEEP PURPLE : The Book of Taliesyn (Digitally remastered)"
    INDEX 01 50:01:23


SEO [PR] おまとめローン 冷え性対策 坂本龍馬 動画掲示板 レンタルサーバー SEO