[ オンエアリストに戻る ]
TITLE "Heavy Metal Syndicate #1085"
FILE "2011-11-27.mp3" WAVE
  TRACK 01 AUDIO
    TITLE "HALF PAST LONELINESS"
    PERFORMER "ROYAL HUNT : Show Me How to Live"
    INDEX 01 00:00:00

  TRACK 02 AUDIO
    TITLE "PANIC IN THE STREETS 2010"
    PERFORMER "PRAYING MANTIS : Metalmorphosis - 30th Anniversary Album (Japanese edition)"
    INDEX 01 22:22:39

  TRACK 03 AUDIO
    TITLE "RAVING HEARTS"
    PERFORMER "TO/DIE/FOR : Samsara"
    INDEX 01 27:46:72

  TRACK 04 AUDIO
    TITLE "BLOOD LINE"
    PERFORMER "ANTHEM : Heraldic Device (Deluxe edition)"
    INDEX 01 34:03:03

  TRACK 05 AUDIO
    TITLE "Introduction: LIVE AND LET DIE"
    PERFORMER "PAUL McCARTNEY and WINGS : Live and Let Die (Soundtrack)"
    INDEX 01 47:25:01

  TRACK 06 AUDIO
    TITLE "Classic rock: LIVE AND LET DIE"
    PERFORMER "GUNS N' ROSES : Use Your Illusion I (Digitally remastered)"
    INDEX 01 52:38:49


SEO [PR] おまとめローン 冷え性対策 坂本龍馬 動画掲示板 レンタルサーバー SEO