[ オンエアリストに戻る ]
TITLE "Heavy Metal Syndicate #1084"
FILE "2011-11-20.mp3" WAVE
  TRACK 01 AUDIO
    TITLE "ONE MORE DAY"
    PERFORMER "ROYAL HUNT : Show Me How to Live"
    INDEX 01 00:00:00

  TRACK 02 AUDIO
    TITLE "KISSING THE FLAMES"
    PERFORMER "TO/DIE/FOR : Samsara"
    INDEX 01 09:57:72

  TRACK 03 AUDIO
    TITLE "WHISKEY IN THE JAR (Live 1972)"
    PERFORMER "THIN LIZZY : At the BBC"
    INDEX 01 19:00:56

  TRACK 04 AUDIO
    TITLE "CHILDREN OF THE EARTH 2010"
    PERFORMER "PRAYING MANTIS : Metalmorphosis - 30th Anniversary EP (Special edition)"
    INDEX 01 24:48:40

  TRACK 05 AUDIO
    TITLE "GONE AWAY"
    PERFORMER "RICH ROBINSON : Through a Crooked Sun"
    INDEX 01 32:42:43

  TRACK 06 AUDIO
    TITLE "Introduction: LEADER OF THE PACK"
    PERFORMER "SHANGRI-LAS : Leader of the Pack"
    INDEX 01 47:56:00

  TRACK 07 AUDIO
    TITLE "Classic rock: LEADER OF THE PACK"
    PERFORMER "TWISTED SISTER : Come Out and Play"
    INDEX 01 52:32:16


SEO [PR] おまとめローン 冷え性対策 坂本龍馬 動画掲示板 レンタルサーバー SEO