[ オンエアリストに戻る ]
TITLE "Heavy Metal Syndicate #1083"
FILE "2011-11-13.mp3" WAVE
  TRACK 01 AUDIO
    TITLE "NOBODY'S PERFECT"
    PERFORMER "ELECTRIC MARY : Electric Mary III"
    INDEX 01 00:00:00

  TRACK 02 AUDIO
    TITLE "GENERATION DEAD"
    PERFORMER "FIVE FINGER DEATH PUNCH : American Capitalist"
    INDEX 01 16:39:42

  TRACK 03 AUDIO
    TITLE "THE DREAM I HAD"
    PERFORMER "ROGER GLOVER AND THE GUILTY PARTY : If Life Was Easy (feat. Dan McCafferty and Pete Agnew)"
    INDEX 01 23:28:15

  TRACK 04 AUDIO
    TITLE "FIRE"
    PERFORMER "DON AIREY : All Out"
    INDEX 01 26:52:60

  TRACK 05 AUDIO
    TITLE "OWNER OF A LONELY HEART (Live 2009)"
    PERFORMER "YES : In the Present - Live from Lyon"
    INDEX 01 33:10:10

  TRACK 06 AUDIO
    TITLE "Classic rock: 25 OR 6 TO 4 (single edit)"
    PERFORMER "CHICAGO : Chicago II (Digitally remastered)"
    INDEX 01 52:24:45


SEO [PR] おまとめローン 冷え性対策 坂本龍馬 動画掲示板 レンタルサーバー SEO