[ オンエアリストに戻る ]
TITLE "Heavy Metal Syndicate #1082"
FILE "2011-11-06.mp3" WAVE
  TRACK 01 AUDIO
    TITLE "DOWN TO NOWHERE"
    PERFORMER "LOVE.MIGHT.KILL : Brace for Impact"
    INDEX 01 00:00:00

  TRACK 02 AUDIO
    TITLE "8TH COMMANDMENT (Live 2009)"
    PERFORMER "SONATA ARCTICA : Live in Finland"
    INDEX 01 15:30:28

  TRACK 03 AUDIO
    TITLE "FROZEN HERO"
    PERFORMER "STATUS QUO : Quid Pro Quo"
    INDEX 01 22:32:52

  TRACK 04 AUDIO
    TITLE "BLACK ROSES"
    PERFORMER "CANDICE NIGHT : Reflections"
    INDEX 01 26:49:45

  TRACK 05 AUDIO
    TITLE "WE DON'T NEED A CURE"
    PERFORMER "HARDCORE SUPERSTAR : The Party Ain't Over 'Til We Say So"
    INDEX 01 32:38:36

  TRACK 06 AUDIO
    TITLE "Classic rock: SILENT LUCIDITY"
    PERFORMER "QUEENSRYCHE : Empire (Digitally remastered)"
    INDEX 01 49:53:12


SEO [PR] おまとめローン 冷え性対策 坂本龍馬 動画掲示板 レンタルサーバー SEO