[ オンエアリストに戻る ]
TITLE "Heavy Metal Syndicate #1081"
FILE "2011-10-30.mp3" WAVE
  TRACK 01 AUDIO
    TITLE "ICED HONEY"
    PERFORMER "LOU REED & METALLICA : Lulu"
    INDEX 01 00:00:00

  TRACK 02 AUDIO
    TITLE "CALM BEFORE THE STORM"
    PERFORMER "LOVE.MIGHT.KILL : Brace for Impact"
    INDEX 01 14:53:51

  TRACK 03 AUDIO
    TITLE "OVER THE WIRE"
    PERFORMER "MORNING AFTER : Legacy"
    INDEX 01 21:13:60

  TRACK 04 AUDIO
    TITLE "FLAG IN THE GROUND (Live 2011)"
    PERFORMER "SONATA ARCTICA : Live in Finland"
    INDEX 01 27:19:42

  TRACK 05 AUDIO
    TITLE "YOU SHOOK ME"
    PERFORMER "ELVES (Featuring RONNIE JAMES DIO) : And Before Elf... There Were Elves"
    INDEX 01 35:23:42

  TRACK 06 AUDIO
    TITLE "Classic rock: RACE WITH THE DEVIL"
    PERFORMER "GUN : Gun"
    INDEX 01 52:43:51


SEO [PR] おまとめローン 冷え性対策 坂本龍馬 動画掲示板 レンタルサーバー SEO