[ オンエアリストに戻る ]
TITLE "Heavy Metal Syndicate #1080"
FILE "2011-10-23.mp3" WAVE
  TRACK 01 AUDIO
    TITLE "ANIMAL"
    PERFORMER "ROCK THE CRADLE LULLABIES Volume 1 : Dreamin' with Def Leppard (feat. Vivian Campbell)"
    INDEX 01 00:00:00

  TRACK 02 AUDIO
    TITLE "FEEL"
    PERFORMER "BLANKO : Flying Colours"
    INDEX 01 16:47:03

  TRACK 03 AUDIO
    TITLE "BACK FOR MORE"
    PERFORMER "FIVE FINGER DEATH PUNCH : American Capitalist"
    INDEX 01 22:30:06

  TRACK 04 AUDIO
    TITLE "RIDE (Live 2010)"
    PERFORMER "CATHEDRAL : Anniversary"
    INDEX 01 27:50:40

  TRACK 05 AUDIO
    TITLE "AMERICA"
    PERFORMER "MORNING AFTER : Legacy"
    INDEX 01 33:19:04

  TRACK 06 AUDIO
    TITLE "Classic rock: LONG GONE"
    PERFORMER "FAIR WARNING : Fair Warning (Digitally remastered)"
    INDEX 01 51:03:48


SEO [PR] おまとめローン 冷え性対策 坂本龍馬 動画掲示板 レンタルサーバー SEO