[ オンエアリストに戻る ]
TITLE "Heavy Metal Syndicate #1079"
FILE "2011-10-16.mp3" WAVE
  TRACK 01 AUDIO
    TITLE "YOU & I"
    PERFORMER "BLANKO : Flying Colours"
    INDEX 01 00:00:00

  TRACK 02 AUDIO
    TITLE "2012 Honda Pilot "Road Trip" TV Commercial"
    INDEX 01 11:02:13

  TRACK 03 AUDIO
    TITLE "REACH FOR THE SKY"
    PERFORMER "FIREHOUSE : Full Circle"
    INDEX 01 20:15:63

  TRACK 04 AUDIO
    TITLE "SUPERSONIC SEX MACHINE"
    PERFORMER "STEEL PANTHER : Balls Out"
    INDEX 01 25:56:56

  TRACK 05 AUDIO
    TITLE "COPPERTANK ISLAND"
    PERFORMER "FAIR TO MIDLAND : Arrows & Anchors"
    INDEX 01 30:00:28

  TRACK 06 AUDIO
    TITLE "GHOST RUNNER"
    PERFORMER "DEREK SHERINIAN : Oceana"
    INDEX 01 35:07:00

  TRACK 07 AUDIO
    TITLE "Classic rock: ROCK & ROLL BAND"
    PERFORMER "BOSTON : Boston (Digitally remastered)"
    INDEX 01 51:31:07


SEO [PR] おまとめローン 冷え性対策 坂本龍馬 動画掲示板 レンタルサーバー SEO