[ オンエアリストに戻る ]
TITLE "Heavy Metal Syndicate #1078"
FILE "2011-10-09.mp3" WAVE
  TRACK 01 AUDIO
    TITLE "IF YOU REALLY, REALLY LOVE ME"
    PERFORMER "STEEL PANTHER : Balls Out"
    INDEX 01 00:00:00

  TRACK 02 AUDIO
    TITLE "STILL YOUR MAN"
    PERFORMER "RIOT : Immortal Soul"
    INDEX 01 14:33:14

  TRACK 03 AUDIO
    TITLE "WHISKEY & RITALIN"
    PERFORMER "FAIR TO MIDLAND : Arrows & Anchors"
    INDEX 01 21:03:73

  TRACK 04 AUDIO
    TITLE "SOUL SACRIFICE (Live 2010)"
    PERFORMER "CATHEDRAL : Anniversary"
    INDEX 01 26:23:38

  TRACK 05 AUDIO
    TITLE "FIRST TO CRY"
    PERFORMER "HOUSE OF LORDS : Big Money"
    INDEX 01 31:03:69

  TRACK 06 AUDIO
    TITLE "Classic rock: THE WHISTLER"
    PERFORMER "JETHRO TULL : Songs from the Wood (Digitally remastered)"
    INDEX 01 51:03:03


SEO [PR] おまとめローン 冷え性対策 坂本龍馬 動画掲示板 レンタルサーバー SEO