[ オンエアリストに戻る ]
TITLE "Heavy Metal Syndicate #1077"
FILE "2011-10-02.mp3" WAVE
  TRACK 01 AUDIO
    TITLE "RIOT"
    PERFORMER "RIOT : Immortal Soul"
    INDEX 01 00:00:00

  TRACK 02 AUDIO
    TITLE "THE VIEW"
    PERFORMER "LOU REED & METALLICA : Lulu"
    INDEX 01 18:00:64

  TRACK 03 AUDIO
    TITLE "ANSWERS"
    PERFORMER "DIVINE ASCENSION : As The Truth Appears"
    INDEX 01 26:15:01

  TRACK 04 AUDIO
    TITLE "HYPNOTIZED"
    PERFORMER "ALMAH : Motion"
    INDEX 01 33:10:40

  TRACK 05 AUDIO
    TITLE "Classic rock: NO MERCY"
    PERFORMER "YNGWIE MALMSTEEN : Fire & Ice"
    INDEX 01 50:45:30


SEO [PR] おまとめローン 冷え性対策 坂本龍馬 動画掲示板 レンタルサーバー SEO