[ オンエアリストに戻る ]
TITLE "Heavy Metal Syndicate #1076"
FILE "2011-09-25.mp3" WAVE
  TRACK 01 AUDIO
    TITLE "OVERNIGHT SENSATION"
    PERFORMER "FIREHOUSE : Full Circle"
    INDEX 01 00:00:00

  TRACK 02 AUDIO
    TITLE "BLACK GOLD"
    PERFORMER "UNION : Siren's Song"
    INDEX 01 15:27:23

  TRACK 03 AUDIO
    TITLE "FIGHT TO THE DEATH"
    PERFORMER "WHITE WIZZARD : Flying Tigers"
    INDEX 01 21:52:57

  TRACK 04 AUDIO
    TITLE "SPEEDIN'"
    PERFORMER "RECKLESS LOVE : Animal Attraction"
    INDEX 01 27:29:29

  TRACK 05 AUDIO
    TITLE "Reissue: MONEY"
    PERFORMER "PINK FLOYD : Discovery / The Dark Side of the Moon (2011 reissue)"
    INDEX 01 34:52:55

  TRACK 06 AUDIO
    TITLE "Classic rock: ROLL WITH THE CHANGES"
    PERFORMER "REO SPEEDWAGON : You Can Tune a Piano but You Can't Tuna Fish (Digitally remastered)"
    INDEX 01 50:26:74


SEO [PR] おまとめローン 冷え性対策 坂本龍馬 動画掲示板 レンタルサーバー SEO