[ オンエアリストに戻る ]
TITLE "Heavy Metal Syndicate #1075"
FILE "2011-09-18.mp3" WAVE
  TRACK 01 AUDIO
    TITLE "SIREN'S SONG"
    PERFORMER "UNION : Siren's Song"
    INDEX 01 00:00:00

  TRACK 02 AUDIO
    TITLE "DIRTY POWER"
    PERFORMER "SEBASTIAN BACH : Kicking & Screaming"
    INDEX 01 12:20:24

  TRACK 03 AUDIO
    TITLE "ILLUSIONS"
    PERFORMER "RISE TO REMAIN : City of Vultures"
    INDEX 01 17:15:01

  TRACK 04 AUDIO
    TITLE "ALRIGHT ALRIGHT"
    PERFORMER "CHICKENFOOT : Chickenfoot III"
    INDEX 01 22:33:15

  TRACK 05 AUDIO
    TITLE "Reissue: WARNING"
    PERFORMER "ARCH ENEMY : The Root of All Evil (2011 reissue)"
    INDEX 01 30:19:32

  TRACK 06 AUDIO
    TITLE "Classic rock: HELLO IT'S ME"
    PERFORMER "TODD RUNDGREN : Something/Anything? (Digitally remastered)"
    INDEX 01 51:13:30


SEO [PR] おまとめローン 冷え性対策 坂本龍馬 動画掲示板 レンタルサーバー SEO