[ オンエアリストに戻る ]
TITLE "Heavy Metal Syndicate #1074"
FILE "2011-09-11.mp3" WAVE
  TRACK 01 AUDIO
    TITLE "INTRO / UNSPOKEN WORDS (Live 2010)"
    PERFORMER "GOTTHARD : Homegrown - Alive in Lugano"
    INDEX 01 00:00:00

  TRACK 02 AUDIO
    TITLE "VIDA (I WANT YOU)"
    PERFORMER "ANSWER : Revival"
    INDEX 01 20:36:20

  TRACK 03 AUDIO
    TITLE "ACROSS 5 OCEANS"
    PERFORMER "MADINA LAKE : World War III"
    INDEX 01 25:41:35

  TRACK 04 AUDIO
    TITLE "THE GIANT"
    PERFORMER "ANTHRAX : Worship Music"
    INDEX 01 29:57:18

  TRACK 05 AUDIO
    TITLE "THIS DAY IS MINE"
    PERFORMER "RISE TO REMAIN : City of Vultures"
    INDEX 01 34:56:07

  TRACK 06 AUDIO
    TITLE "Classic rock: TURN ON THE ACTION"
    PERFORMER "DOKKEN : Tooth and Nail (Digitally remastered)"
    INDEX 01 50:30:28


SEO [PR] おまとめローン 冷え性対策 坂本龍馬 動画掲示板 レンタルサーバー SEO