[ オンエアリストに戻る ]
TITLE "Heavy Metal Syndicate #1073"
FILE "2011-09-04.mp3" WAVE
  TRACK 01 AUDIO
    TITLE "THE FINAL COUNTDOWN (Live 2011)"
    PERFORMER "EUROPE : Live! - At Shepherd's Bush, London (DVD)"
    INDEX 01 00:00:00

  TRACK 02 AUDIO
    TITLE "HOW LONG (3 GENERATIONS GUITAR BATTLE VERSION)"
    PERFORMER "MICHAEL SCHENKER : Temple of Rock"
    INDEX 01 20:05:28

  TRACK 03 AUDIO
    TITLE "17 GIRLS IN A ROW"
    PERFORMER "STEEL PANTHER : Balls Out"
    INDEX 01 26:24:35

  TRACK 04 AUDIO
    TITLE "THE TRAIN"
    PERFORMER "GOTTHARD : Homegrown - Alive in Lugano"
    INDEX 01 31:24:13

  TRACK 05 AUDIO
    TITLE "DARKER TIMES (Eagleclaw Remix)"
    PERFORMER "IN FLAMES : 着うたフル / Sounds of a Playground Fading (iTunes)"
    INDEX 01 37:10:48

  TRACK 06 AUDIO
    TITLE "Classic rock: ON THE OTHER SIDE"
    PERFORMER "KANSAS : Monolith (Digitally remastered)"
    INDEX 01 50:01:63


SEO [PR] おまとめローン 冷え性対策 坂本龍馬 動画掲示板 レンタルサーバー SEO