[ オンエアリストに戻る ]
TITLE "Heavy Metal Syndicate #1072"
FILE "2011-08-28.mp3" WAVE
  TRACK 01 AUDIO
    TITLE "MISS CLAUSTROPHOBIA"
    PERFORMER "MICHAEL SCHENKER : Temple of Rock"
    INDEX 01 00:00:00

  TRACK 02 AUDIO
    TITLE "KICKING & SCREAMING"
    PERFORMER "SEBASTIAN BACH : Kicking & Screaming"
    INDEX 01 17:39:19

  TRACK 03 AUDIO
    TITLE "WHAT YOU WANT"
    PERFORMER "EVANESCENCE : Evanescence"
    INDEX 01 23:22:07

  TRACK 04 AUDIO
    TITLE "AM I THE ENEMY"
    PERFORMER "RED JUMPSUIT APPARATUS : Am I the Enemy"
    INDEX 01 28:19:47

  TRACK 05 AUDIO
    TITLE "Reissue: GIVE ME ALL YOUR LOVE (Live 2008)"
    PERFORMER "WHITESNAKE : Still Good to Be Bad"
    INDEX 01 35:23:03

  TRACK 06 AUDIO
    TITLE "Classic rock: CHERRY PIE"
    PERFORMER "WARRANT : Cherry Pie (Digitally remastered)"
    INDEX 01 52:03:40


SEO [PR] おまとめローン 冷え性対策 坂本龍馬 動画掲示板 レンタルサーバー SEO