[ オンエアリストに戻る ]
TITLE "Heavy Metal Syndicate #1071"
FILE "2011-08-21.mp3" WAVE
  TRACK 01 AUDIO
    TITLE "MY OWN WORST ENEMY"
    PERFORMER "SEBASTIAN BACH : Kicking & Screaming"
    INDEX 01 00:00:00

  TRACK 02 AUDIO
    TITLE "THE STAR-SPANGLED BANNER (Live at Sun Life Stadium, August 6, 2011)"
    PERFORMER "YNGWIE MALMSTEEN"
    INDEX 01 19:01:07

  TRACK 03 AUDIO
    TITLE "INTRO (SPEECH PERFORMED BY WILLIAM SHATNER) / HOW LONG"
    PERFORMER "MICHAEL SCHENKER : Temple of Rock"
    INDEX 01 21:04:39

  TRACK 04 AUDIO
    TITLE "GET WHAT'S COMING"
    PERFORMER "RIVAL SONS : Rival Sons - EP"
    INDEX 01 28:32:06

  TRACK 05 AUDIO
    TITLE "FOREVERMORE (acoustic version)"
    PERFORMER "WHITESNAKE : Forevermore (Deluxe edition)"
    INDEX 01 32:49:16

  TRACK 06 AUDIO
    TITLE "THE DEVIL YOU KNOW"
    PERFORMER "ANTHRAX : Worship Music"
    INDEX 01 38:17:02

  TRACK 07 AUDIO
    TITLE "Classic rock: MY SWEET LORD"
    PERFORMER "GEORGE HARRISON : All Things Must Pass"
    INDEX 01 51:42:16


SEO [PR] おまとめローン 冷え性対策 坂本龍馬 動画掲示板 レンタルサーバー SEO